Search found 7 matches

by tra
Sat Dec 08, 2018 10:46 pm
Forum: ZoneMinder 1.32.x
Topic: Solved! Audio record problem with camera passthrough
Replies: 6
Views: 1640

Re: Solved! Audio record problem with camera passthrough

Upgrading to version 1.32.2 fixed the problem. Audio works now fine with all my cameras support audio. Thank you very much :D

- TRa
by tra
Sat Nov 24, 2018 10:15 pm
Forum: ZoneMinder 1.32.x
Topic: h264 passthrough hikvision audio
Replies: 7
Views: 1412

Re: h264 passthrough hikvision audio

I have one camera audio works fine. It is Reolink RLC-410 and it outputs aac audio. According to ffmpeg audio is: Stream #0:1: Audio: aac, 16000 Hz, mono, fltp But I have several cheap Chinese brand HJT cameras. According to ffmpeg audio is: Stream #0:1: Audio: pcm_mulaw, 8000 Hz, mono, s16, 64 kb/s...
by tra
Fri Nov 02, 2018 4:19 pm
Forum: ZoneMinder 1.32.x
Topic: Solved! Audio record problem with camera passthrough
Replies: 6
Views: 1640

Re: Audio record problem with camera passthrough

I really want to fix this. I downloaded also the source package, but I'm not familiar with zoneminder enough. Could somebody point me the correct source file which defines the actual ffmpeg-command to capture video? Binary is zmc am I right? I think it should be quite trivial to find the ffmpeg para...
by tra
Wed Oct 17, 2018 2:26 pm
Forum: ZoneMinder 1.32.x
Topic: Solved! Audio record problem with camera passthrough
Replies: 6
Views: 1640

Re: Audio record problem with camera passthrough

Updated 1.32.0 to 1.32.1 but still no audio. Is there the way somehow debug that more? This error [could not open codec (-22) (Invalid argument)] does not tell me much. From debug log you can see audio is available and stream is found. And I can capture it by pure ffmpeg, but it is not working with ...
by tra
Mon Oct 08, 2018 12:20 pm
Forum: ZoneMinder 1.32.x
Topic: Solved! Audio record problem with camera passthrough
Replies: 6
Views: 1640

Re: Audio record problem with camera passthrough

ZM will automatically encode the audio to aac when saving to .mp4. OK, but somehow it does not work, I do not know why. I can capture video/audio to mp4 from camera, so I think I do have necessary libraries. /usr/bin/ffmpeg -i rtsp://admin:123456@192.168.0.125:554/mpeg4 -c:v copy -c:a aac foo.mp4 w...
by tra
Fri Oct 05, 2018 4:19 pm
Forum: ZoneMinder 1.32.x
Topic: Solved! Audio record problem with camera passthrough
Replies: 6
Views: 1640

Solved! Audio record problem with camera passthrough

Camera Passthrough storage is great with h264 cameras, thank you very much of this new feature! But how can I record audio to mp4-video with camera when audio is not valid for mp4-container? I have several cameras, audio format is pcm_mulaw. Works fine with ffmpeg, I can get audio if I capture video...
by tra
Thu Oct 04, 2018 1:21 pm
Forum: Mobile Apps
Topic: Any free app for android for ZM 1.32?
Replies: 3
Views: 1667

Any free app for android for ZM 1.32?

Is there any free mobile app for android? zmView stopped working for me after upgrading to 1.32. Then I removed it to reinstall, but I can not find it any more from Google Play. Can be very simple, I just use it sometimes, not often for checking what's going on and also tuning camera for example whe...